Показать сообщение отдельно
Старый 08.08.2011, 11:49   #5
Меню пользователя maks75
VIP-пользователь
 
Аватар для maks75
  
Exclamation Клипы и картинки для тестирования ТВ

1) Hong Kong Connection, The (3:39) - единый клип для тестирования от Philips:
- Горизонтальные и вертикальные перемещения.
- Быстрые движущиеся объекты.
- Мелкие фоновые объекты.
- Тонкие паутинообразные объекты.
- Водная гладь.
- Высотные застекленные здания.
- Различные природные цвета.
- Люди (цвет лица).
и т.д.
Инфа по файлу:
Общее
Уникальный идентификатор : 37769399045095904831261390641211777710 (0x1C6A1F25203A2B49A0A336A506A622AE)
Полное имя : hd_other_philips_the_hong_kong_connection.mkv
Формат : Matroska
Версия формата : Version 2
Размер файла : 223 Мбайт
Продолжительность : 3 м. 39 с.
Общий поток : 8535 Кбит/сек
Дата кодирования : UTC 2011-04-04 12:29:01
Программа кодирования : gdsmux
Библиотека кодирования : Haali DirectShow Matroska Muxer 1.9.42.1

Видео
Идентификатор : 1
Формат : AVC
Формат/Информация : Advanced Video Codec
Профиль формата : High@L4.1
Параметр CABAC формата : Да
Параметр ReFrames формата : 3 кадра
Идентификатор кодека : V_MPEG4/ISO/AVC
Продолжительность : 3 м. 39 с.
Вид битрейта : Переменный
Битрейт : 8284 Кбит/сек
Максимальный битрейт : 25,0 Мбит/сек
Ширина : 1920 пикс.
Высота : 1080 пикс.
Соотношение сторон : 16:9
Частота кадров : 25,000 кадр/сек
Цветовое пространство : YUV
Подвыборка цветности : 4:2:0
Битовая глубина : 8 бит
Тип развёртки : Прогрессивная
Бит/(Пиксели*Кадры) : 0.160
Размер потока : 212 Мбайт (95%)
Заголовок : PID 4113
Библиотека кодирования : x264 core 66 r1114M a933a3e
Настройки программы : cabac=1 / ref=3 / deblock=1:0:0 / analyse=0x3:0x133 / me=umh / subme=7 / psy_rd=1.0:0.0 / mixed_ref=1 / me_range=16 / chroma_me=1 / trellis=1 / 8x8dct=1 / cqm=0 / deadzone=21,11 / chroma_qp_offset=-2 / threads=3 / nr=0 / decimate=1 / mbaff=0 / bframes=3 / b_pyramid=0 / b_adapt=1 / b_bias=0 / direct=3 / wpredb=1 / keyint=250 / keyint_min=25 / scenecut=40(pre) / rc=2pass / bitrate=8284 / ratetol=1.0 / qcomp=0.60 / qpmin=10 / qpmax=51 / qpstep=4 / cplxblur=20.0 / qblur=0.5 / vbv_maxrate=25000 / vbv_bufsize=25000 / ip_ratio=1.40 / pb_ratio=1.30 / aq=1:1.00

Аудио
Идентификатор : 2
Формат : AC-3
Формат/Информация : Audio Coding 3
Расширение режима : CM (complete main)
Режим смешивания : Header stripping
Идентификатор кодека : A_AC3
Продолжительность : 3 м. 39 с.
Вид битрейта : Постоянный
Битрейт : 256 Кбит/сек
Каналы : 2 канала
Расположение каналов : Front: L R
Частота : 48,0 КГц
Битовая глубина : 16 бит
Метод сжатия : С потерями
Размер потока : 6,69 Мбайт (3%)
Заголовок : PID 4352
2) Downtown Assault, The (в простонародье "Снайперы", на YouTube) (2:16) - Perfect Natural Motion demonstration от Philips.
Куча вертикальных, горизонтальных и диагональных перемещений камеры на фоне высотных застекленных зданий.
Хорошо видна работа уплавнителя движений у разных производителей ТВ.
К сожалению, это не исходный Blu-ray (m2ts), а пережатка кривыми руками (так мне достался) в MPEG2 + AC3 5.1, немного мной вылеченная (до этого Philips 42PFL6805H - проигрывал не многим лучше, как сейчас модели Philips 2011 г.). Разобрал исходный без пережатия и заново собрал в контейнер, т.к. первоначально были криво смикшированы звук и видео. Испорченную цветность - не трогал.
З.Ы.1. Philips 2010 г. (любые с 5-й серии и выше) - проигрывают нормально, старшие на шасси 551.1E лучше.
З.Ы.2. Philips 2011 г. (с прошивки 10.94.1 и выше) - нормально не проигрывают - рассинхронизация звука и видео с рывками в последнем. Возможно, на последующих прошивках выше 14.84 (88) это исправят.
Инфа по файлу:
Общее
Идентификатор : 16 (0x10)
Полное имя : Downtown Assault, The (Snipers).mpg
Формат : MPEG-TS
Размер файла : 589 Мбайт
Продолжительность : 2 м. 16 с.
Общий поток : 36,3 Мбит/сек

Видео
Идентификатор : 32 (0x20)
Идентификатор меню : 3 (0x3)
Формат : MPEG Video
Версия формата : Version 2
Профиль формата : Main@High
Параметр BVOP формата : Да
Параметр матрицы формата : Выборочная
Параметры GOP формата : M=3, N=12
Идентификатор кодека : 2
Продолжительность : 2 м. 16 с.
Битрейт : 34,0 Мбит/сек
Максимальный битрейт : 35,0 Мбит/сек
Ширина : 1920 пикс.
Высота : 1080 пикс.
Соотношение сторон : 16:9
Частота кадров : 24,000 кадр/сек
Стандарт вещания : Component
Цветовое пространство : YUV
Подвыборка цветности : 4:2:0
Битовая глубина : 8 бит
Тип развёртки : Прогрессивная
Метод сжатия : С потерями
Бит/(Пиксели*Кадры) : 0.684
Размер потока : 552 Мбайт (94%)

Аудио
Идентификатор : 33 (0x21)
Идентификатор меню : 3 (0x3)
Формат : AC-3
Формат/Информация : Audio Coding 3
Расширение режима : CM (complete main)
Идентификатор кодека : 129
Продолжительность : 2 м. 16 с.
Вид битрейта : Постоянный
Битрейт : 448 Кбит/сек
Каналы : 6 каналов
Расположение каналов : Front: L C R, Side: L R, LFE
Частота : 48,0 КГц
Битовая глубина : 16 бит
Метод сжатия : С потерями
Размер потока : 7,27 Мбайт (1%)
3) Начальные кадры из фильма Red (00:25) - горизонтальное перемещение камеры по кругу.
Инфа по файлу:
Общее
Уникальный идентификатор : 173858246740137884702123194284332526544 (0x82CBE15E74FEAEB0BB37541D91B7ABD0)
Полное имя : RED.mkv
Формат : Matroska
Версия формата : Version 2
Размер файла : 27,9 Мбайт
Продолжительность : 25 с.
Общий поток : 9311 Кбит/сек
Дата кодирования : UTC 2011-04-03 09:47:30
Программа кодирования : mkvmerge v4.2.0 ('No Talking') сборка от Jul 28 2010 18:38:23
Библиотека кодирования : libebml v1.0.0 + libmatroska v1.0.0

Видео
Идентификатор : 1
Формат : AVC
Формат/Информация : Advanced Video Codec
Профиль формата : High@L4.1
Параметр CABAC формата : Да
Параметр ReFrames формата : 5 кадров
Идентификатор кодека : V_MPEG4/ISO/AVC
Продолжительность : 25 с.
Битрейт : 9126 Кбит/сек
Ширина : 1920 пикс.
Высота : 800 пикс.
Соотношение сторон : 2,40:1
Частота кадров : 23,976 кадр/сек
Цветовое пространство : YUV
Подвыборка цветности : 4:2:0
Битовая глубина : 8 бит
Тип развёртки : Прогрессивная
Бит/(Пиксели*Кадры) : 0.248
Размер потока : 27,4 Мбайт (98%)
Язык : English
4) Взлет уток с воды.
Тяжелый по видео битрейту (111 Мбит/сек = 13,875 Мбайт/сек) клип.
Сразу видна работа уплавнителя движений и шустрость шасси (в большей мере на будущее) у разных производителей ТВ.
USB 2.0 вполне достаточно для его проигрывания, но старые веники и флешки - могут не потянуть.
Реальных фильмов с таким битрейтом - сейчас нет.
4.1) Взлет уток с воды 1080р HD (00:16)
Инфа по файлу:
Общее
Полное имя : Ducks.Take.Off.1080p.QHD.CRF25.x264-CtrlHD.mkv
Формат : Matroska
Версия формата : Version 1
Размер файла : 220 Мбайт
Продолжительность : 16 с.
Общий поток : 111 Мбит/сек
Программа кодирования : x264
Библиотека кодирования : Haali Matroska Writer b0

Видео
Идентификатор : 1
Формат : AVC
Формат/Информация : Advanced Video Codec
Профиль формата : High@L5.1
Параметр CABAC формата : Да
Параметр ReFrames формата : 5 кадров
Идентификатор кодека : V_MPEG4/ISO/AVC
Продолжительность : 16 с.
Битрейт : 108 Мбит/сек
Ширина : 1920 пикс.
Высота : 1080 пикс.
Соотношение сторон : 16:9
Частота кадров : 29,970 кадр/сек
Цветовое пространство : YUV
Подвыборка цветности : 4:2:0
Битовая глубина : 8 бит
Тип развёртки : Прогрессивная
Бит/(Пиксели*Кадры) : 1.744
Размер потока : 215 Мбайт (98%)
Библиотека кодирования : x264 core 59 r830M 5ca01b3
Настройки программы : cabac=1 / ref=5 / deblock=1:-3:-3 / analyse=0x3:0x133 / me=umh / subme=7 / me-prepass=0 / brdo=1 / mixed_ref=1 / me_range=24 / chroma_me=1 / trellis=0 / 8x8dct=1 / cqm=2 / deadzone=8,2 / chroma_qp_offset=0 / threads=6 / nr=0 / decimate=1 / mbaff=0 / fgo=10 / bframes=3 / b_pyramid=1 / b_adapt=1 / b_bias=0 / direct=1 / wpredb=1 / bime=1 / keyint=250 / keyint_min=25 / scenecut=40(pre) / rc=crf / crf=19.0 / rceq='blurCplx^(1-qComp)' / qcomp=1.00 / qpmin=10 / qpmax=51 / qpstep=4 / ip_ratio=1.40 / pb_ratio=1.15 / aq=2:0.60
Язык : English
4.2) Взлет уток с воды 720р (00:16)

Дополнительные тестовые клипы:
2D High Definition Trailers (HD)
3D SBS High Definition Trailers (HD)

Если файл не проигрывается на вашем ТВ по USB:
Информацию по файлам можно смотреть с помощью MediaInfo.
1) Фильм не проигрывается.
Файл виден по USB и не запускается, уменьшение имени файла или перемещение файла в корень диска - и ... файл уже играется.
2) Проигрывается, но без звука.
Удалите с помощью tsMuxerGUI + MKVtoolnix лишние дорожки и все субтитры из файла без перекодирования.
2.1) tsMuxerGUI
Кнопкой Add добавляем файл (.mkv, .m2ts).
Сверху (Input files) наш контейнер, а ниже (Tracks) все его составляющие.
В поле Output ставим Demux и нажимаем Start.
Получаем 1 видео файл и 1 или несколько аудио и субтитров (если есть).
2.2) MKVtoolnix – микшируем видео и нужную аудио дорожку в контейнер MKV.
В MediaInfo предварительно подсматриваем частоту кадров в секунду и устанавливаем ее в поле FPS на закладке "Параметры, специфичные для формата".
3) DTS – единственная аудио дорожка.
PopCorn MKV AudioConverter (инструкция).
4) Blu-ray (m2ts) - с помощью MKVtoolnix + tsMuxerGUI без перекодирования переложите в контейнер MKV (см. п. 2).

Дополнительные тестовые картинки JPEG для настройки ТВ (основные см. п. 2 в 1-м посте стр.):
1) TV Fine Tuning от Burosch
Много разнообразных картинок для тестирования цветности, градаций, фокуса, краев, резкости и т.д.
Особенно ценна 13_Ladies.jpg - девушки разных рас и все остальное на одной картинке - по ней очень быстро можно настроить ТВ в магазине и понять что он умеет .
Содержание:
01_Bildformat_Overscan.jpg
02_Helligkeit.jpg
03_Kontrast.jpg
04_Farbe.jpg
05_Bildschaerfe.jpg
06_First_Check_Test_Pattern_german.jpg
07_First_Check_Test_Pattern_english.jpg
08_Brightness.jpg
09_Contrast.jpg
10_Color.jpg
11_Focus.jpg
12_AVEC.jpg
13_Ladies.jpg
14_DIVAS.jpg
15_Gray_Bars_32.jpg
16_Gray_Values_256.jpg
17_Colourbars_100.jpg
18_Colourbars_75.jpg
19_Chroma_Decoder_Adjustment.jpg
20_Luma_Chroma_48_Steps.jpg
21_Brightness_Contrast_Analysis.jpg
22_Brightness_Contrast_Analysis_blue.jpg
23_Brightness_Contrast_Analysis_green.jpg
24_Brightness_Contrast_Analysis_red.jpg
25_Pluge.jpg
26_Pixel_Cropping.jpg
27_Aspect_Ratio.jpg
28_Focus_Beamer.jpg
29_Zone_Plate.jpg
30_ViewAngle_Colour.jpg
BUROSCH_Realbild_01.jpg
BUROSCH_Realbild_02.jpg
BUROSCH_Realbild_03.jpg
BUROSCH_Realbild_04.jpg
2) Все на одной картинке (Две тетки по середине)
Использую в качестве окончательной полировки при настройке изображения ТВ.
2 варианта этой картинки есть в п. 1 (06 (DE) и 07 (EN)).
3) Советские ТВ-таблицы (1, 2 (ч/б, big), 3 (ч/б, original, PNG)).
ТИТ-0249 поможет настроить "черноту" черного и "белоту" белого.
Нужно чтобы все 10 градаций различались.
А у цветной UEIT есть даже 11-я градация "чернее черного".
Настройка геометрии на плоских панелях не актуальна.
З.Ы. PNG - покажут не все ТВ => Переконвертировать в JPEG, например, в Paint.

Последний раз редактировалось maks75, 26.05.2013 в 23:27.
maks75 вне форума   Ответить с цитированием